Witaj Gościu! jeżeli widzisz ten dymek to znaczy że nie jesteś zarejestrowany/zalogowany. Kliknij by się zarejestrować. Rejestracja zajmie mniej niż 30 sekund, a dzięki niej zyskasz możliwość pobierania, komentowania oraz dodawania torrentów !



User:      Hasło:     

MENU


Kategorie


FACEBOOK


PROGRAMY


Torrent: The Predator *2018* [720p] [KORSUB] [HDRip] [XviD] [MP3] [STUTTERSHIT] [ENG]
Dodał:  8fd415bf
Data: 10-11-2018
Rozmiar: 2.76 GB
Seed: 0
Peer: 0
Kondycja:
Zaloguj się aby pobrać


Kategoria:  Filmy DivX/XviD
Gatunek: Sci-Fi / Fantasy
Zaakceptował: Nie wymagał akceptacji
Liczba pobrań: 169
Liczba komentarzy: 0
Ostatnia aktualizacja: 2018-11-17 09:03:21

OPIS:



Produkcja: USA
Gatunek: Akcja, Sci-Fi
Premiera: 14 września 2018 (Polska), 7 września 2018 (świat)
Reżyseria: Shane Black
Scenariusz: Shane Black, Fred Dekker



Reżyser Shane Black ("Iron Man 3") przedstawia widowiskowy film science fiction, który rewolucjonizuje serię o Predatorze. Tym razem spektakularne polowanie przenosi się z odległych zakątków kosmosu wprost na ulice niewielkiego miasteczka na amerykańskiej prowincji. Najgroźniejsi łowcy wszechświata są silniejsi, mądrzejsi i bardziej śmiercionośni niż kiedykolwiek wcześniej, ulegli bowiem modyfikacji genetycznej, wzbogacając się o DNA innych gatunków. Kiedy mały chłopiec  przypadkowo sprowadza ich ponownie na Ziemię, jedynie oddział byłych żołnierzy i skromny nauczyciel mogą zapobiec zagładzie rasy ludzkiej.



? Boyd Holbrook .... Quinn McKenna
? Trevante Rhodes .... Williams
? Jacob Tremblay .... Rory McKenna
? Keegan-Michael Key .... Coyle
? Olivia Munn .... Casey Bracket
? Sterling K. Brown .... Agent rządowy
? Thomas Jane .... Baxley
? Alfie Allen .... Lynch



Video
ID : 0
Format : MPEG-4 Visual
Format profile : Simple@L5
Format settings, BVOP : No
Format settings, QPel : No
Format settings, GMC : No warppoints
Format settings, Matrix : Default (H.263)
Codec ID : XVID
Codec ID/Hint : XviD
Duration : 1 h 46 min
Bit rate : 3 497 kb/s
Width : 1 280 pixels
Height : 536 pixels
Display aspect ratio : 2.40:1
Frame rate : 30.000 FPS
Color space : YUV
Chroma subsampling : 4:2:0
Bit depth : 8 bits
Scan type : Progressive
Compression mode : Lossy
Bits/(Pixel*Frame) : 0.170
Stream size : 2.61 GiB (94%)
Writing library : Lavc58.1.100

Audio
ID : 1
Format : MPEG Audio
Format version : Version 1
Format profile : Layer 3
Format settings : Joint stereo / MS Stereo
Codec ID : 55
Codec ID/Hint : MP3
Duration : 1 h 46 min
Bit rate mode : Constant
Bit rate : 192 kb/s
Channel(s) : 2 channels
Sampling rate : 48.0 kHz
Compression mode : Lossy
Stream size : 147 MiB (5%)
Alignment : Aligned on interleaves
Interleave, duration : 24 ms (0.72 video frame)
Interleave, preload duration : 504 ms
Writing library : LAME3.99 (alpha)


http://imagecurl.com/viewer.php?file=50226330433000580639.png
http://imagecurl.com/viewer.php?file=34330406453419223898.png
http://imagecurl.com/viewer.php?file=26818381561537427806.png

DETALE TORRENTA:[ ]
Podziękowania, Go??




Komentarze